0 Пользователей и 1 Гость просматривают эту тему.
  • 13 Ответов
  • 10059 Просмотров
*

otmarozok

  • Новичок
  • 9
  • 0 / 0
Путь к FFMPEG и FLVTool2
« : 04.07.2009, 20:52:27 »
Не могу заставить проигрываться локально видео файлы. Подскажите как правильно подключить FFMPEG.
Что надо прописать в FFMPEG Path?
*

ruslango

  • Осваиваюсь на форуме
  • 16
  • 0 / 0
Re: Подключение FFMPEG
« Ответ #1 : 27.07.2009, 00:34:44 »
Не могу заставить проигрываться локально видео файлы. Подскажите как правильно подключить FFMPEG.
Что надо прописать в FFMPEG Path?
Полный путь к программе FFMPEG, узнать это можно у своего хостера.
Скорее всего лежит где-то в /usr/bin
*

djlab

  • Осваиваюсь на форуме
  • 11
  • 0 / 0
Путь к FFMPEG и FLVTool2
« Ответ #2 : 29.03.2010, 06:33:53 »
Вопрос. Нужно ли что то ещё дополнительное для того что бы JomSocial сама конвертировала видео?
Сайт стоит на выделенной виртуалке, ffpeg+flvtool2 установлены, в настройках путь к ним прописан.
Но какое бы видео не пытался загрузить, так и висит вечно в отложенных.
Есть такая вещь как ffmpeg-php, быть может нуждается в ней сайт? или ещё в чём то дополнительном7
*

nikoola

  • Захожу иногда
  • 57
  • 3 / 0
*

koiot

  • Осваиваюсь на форуме
  • 13
  • 0 / 1
Re: Путь к FFMPEG и FLVTool2
« Ответ #4 : 29.05.2010, 18:45:08 »
установил JomSocial
но вот никак не могу найти полную инструкцию по установке FFMPEG и FLVTool2
скажите как
откуда нужно скачать их
*

hrust1990

  • Осваиваюсь на форуме
  • 17
  • 0 / 0
Здравствуйте при загрузке виде пишет Загруженное видео находится в очереди на обработку. Затем видео будт удалено из очереди обработки и доступно к просмотру.как сделать чтоб сразу показывало без никакой обработки или хотя б как настроить воопщем проблема с загрузкой видео на сайт помогите решить пожалуйста  :(
*

MajorNet

  • Новичок
  • 2
  • 0 / 0
Как одобрить видео? Всю голову сломал не могу ничего подобное найти... Помогите плз...
« Последнее редактирование: 17.11.2010, 12:34:04 от MajorNet »
*

koiot

  • Осваиваюсь на форуме
  • 13
  • 0 / 1
Re: Путь к FFMPEG и FLVTool2
« Ответ #7 : 17.11.2010, 16:58:17 »
в этом и вся проблема
система сама одобрит видео если будут установлены кодеки
*

kandelabr

  • Осваиваюсь на форуме
  • 15
  • 0 / 0
Re: Путь к FFMPEG и FLVTool2
« Ответ #8 : 25.04.2011, 16:57:31 »
Видео размером больше 1Гб не обрабатывается, создаются лишь .flv файлы нулевого размера. Кто нибудь подскажет в чём может быть проблема?
*

kharol

  • Moderator
  • 1723
  • 217 / 0
Re: Путь к FFMPEG и FLVTool2
« Ответ #9 : 25.04.2011, 17:05:08 »
Посмотрите какой максимально допустимый объем файла на загрузку у Вас.
Хватает ли php параметров для обработки такого объема.
Ну тут все вопросы к хостингу
Чтобы сказать "спасибо" достаточно нажать на "+"
Чтобы сделать бухгалтерскую проводку "спасибо" реквизиты: R192102130372, ЯД:41001768818003
*

kandelabr

  • Осваиваюсь на форуме
  • 15
  • 0 / 0
Re: Путь к FFMPEG и FLVTool2
« Ответ #10 : 25.04.2011, 17:51:38 »
Параметров хватает, сервер администрирую сам.
Файлы загружены, лежат в папке originalvideos
-rw-r--r-- 1 1,4G Апр 24 17:13 gMkKNdgXOA0.vedmaavi
-rw-r--r-- 1 1,4G Апр 24 17:27 QEoomMpfO5J.avi
После запуска cron создаются файлы нулевого размера, исходные остаются на месте, ffmpeg даже не пытается их обрабатывать.
*

kharol

  • Moderator
  • 1723
  • 217 / 0
Re: Путь к FFMPEG и FLVTool2
« Ответ #11 : 26.04.2011, 09:57:35 »
А в cronjob.php прописан хост?
Чтобы сказать "спасибо" достаточно нажать на "+"
Чтобы сделать бухгалтерскую проводку "спасибо" реквизиты: R192102130372, ЯД:41001768818003
*

kandelabr

  • Осваиваюсь на форуме
  • 15
  • 0 / 0
Re: Путь к FFMPEG и FLVTool2
« Ответ #12 : 26.04.2011, 11:24:20 »
Хост в cronjob.php не прописан. Файлы меньше 1гб конвертируются без проблем.
Похоже проблему удалось локализовать, попробовал запустить конвертацию вручную,
на выходе сразу ошибка и создаётся файл нулевого размера, как и в случае запуска задания
Код
ffmpeg -i QEoomMpfO5J.avi -ar 22050 -ab 32 -f flv -s 320x240 Q.flv
FFmpeg version UNKNOWN, Copyright (c) 2000-2011 the FFmpeg developers
  built on Apr 13 2011 13:57:34 with gcc 4.3.2 [gcc-4_3-branch revision 141291]
  configuration: --enable-shared --disable-yasm
  libavutil    50. 40. 0 / 50. 40. 0
  libavcodec   52.116. 0 / 52.116. 0
  libavformat  52.104. 0 / 52.104. 0
  libavdevice  52.  4. 0 / 52.  4. 0
  libavfilter   1. 76. 0 /  1. 76. 0
  libswscale    0. 13. 0 /  0. 13. 0
[mpeg4 @ 0x7218020] Invalid and inefficient vfw-avi packed B frames detected
[avi @ 0x7215650] max_analyze_duration reached

Seems stream 0 codec frame rate differs from container frame rate: 30000.00 (30000/1) -> 25.00 (25/1)
Input #0, avi, from 'QEoomMpfO5J.avi':
  Metadata:
    encoder         : VirtualDubMod 1.5.10.2 (build 2542/release)
    IAS1            : Russian
  Duration: 02:20:04.00, start: 0.000000, bitrate: 1401 kb/s
    Stream #0.0: Video: mpeg4, yuv420p, 720x416 [PAR 1:1 DAR 45:26], 25 fps, 25 tbr, 25 tbn, 30k tbc
    Stream #0.1: Audio: ac3, 48000 Hz, 6 channels, s16, 384 kb/s
WARNING: The bitrate parameter is set too low. It takes bits/s as argument, not kbits/s
[buffer @ 0x721bd10] w:720 h:416 pixfmt:yuv420p
[setdar @ 0x729a1c0] a:45/26
[scale @ 0x7299ea0] w:720 h:416 fmt:yuv420p -> w:320 h:240 fmt:yuv420p flags:0xa0000004
[setdar @ 0x729a1c0] w:320 h:240 -> dar:45/26 sar:74/57
Output #0, flv, to 'Q.flv':
    Stream #0.0: Video: flv, yuv420p, 320x240 [PAR 74:57 DAR 296:171], q=2-31, 200 kb/s, 90k tbn, 25 tbc
    Stream #0.1: Audio: adpcm_swf, 22050 Hz, 6 channels, s16, 0 kb/s
Stream mapping:
  Stream #0.0 -> #0.0
  Stream #0.1 -> #0.1
Error while opening encoder for output stream #0.1 - maybe incorrect parameters such as bit_rate, rate, width or height

Видимо дело не в размере файла, попробую разобраться.
*

kolio

  • Захожу иногда
  • 91
  • 11 / 4
Re: Путь к FFMPEG и FLVTool2
« Ответ #13 : 04.05.2013, 17:55:53 »
я установил ffmpeg библиотеку в apache (win версия).
непонятно какой в этом случае прописать путь в настройкам com_community к этой библиотеке

а также проблема в установке flvtool2. непонятно где брать библиотеку. или просто скинуть flvtool2.exe в папку с apache? ну я уже не говорю об отсутсвии библиотеки dll для апача flvtool2

прошу помощи
---------
поисходнику глянул
$cmd   = $this->ffmpeg . ' -version 2>&1';
$output   = $this->_runCommand($cmd);

ему нужен по ходу путь к ffmpeg.exe
который выведет ffmpeg.exe -version 2>&1  версию, и таким макаром он определяет что есть поддержка ffmpeg
----------------
итого путь таков:
E:/album/FFmpeg/bin/ffmpeg.exe
выводит он после проверки на валидность
вот что
Спойлер
[свернуть]

короче нужны просто пути к EXE файлам
--------------
итого:
http://127.0.0.1/index.php?option=com_community&task=cron
выдал
<messages>
<message>
1 videos converted successfully...
</message>
<message>
No temporary videos to delete.
</message>
<message>
No files to transfer.
</message>
<message>
No Videos to transfer.
</message>
<message>
No avatars needed to be transferred
</message>
<message>
No avatars needed to be transferred
</message>
<message>
Removed Pending Invitation for Past Event
</message>
</messages>

НУ И ИТОГО всё отконвертило и показывает ;D я мего-крут  ^-^
« Последнее редактирование: 04.05.2013, 22:49:25 от kolio »
Чтобы оставить сообщение,
Вам необходимо Войти или Зарегистрироваться